<?xml version="1.0" standalone="no"?>
<!DOCTYPE svg PUBLIC "-//W3C//DTD SVG 1.1//EN" "http://www.w3.org/Graphics/SVG/1.1/DTD/svg11.dtd" >
<svg xmlns="http://www.w3.org/2000/svg">
<metadata></metadata>
<defs>
<font id="typoninesanstext" horiz-adv-x="1136" >
<font-face units-per-em="2048" ascent="1597" descent="-451" />
<missing-glyph horiz-adv-x="460" />
<glyph unicode="&#xfb01;" horiz-adv-x="1144" d="M53 807v149l156 13v73q0 103 35 178.5t98 118.5t140 63.5t169 20.5q173 0 314 -51l-41 -190q-43 27 -115.5 50t-142.5 23q-131 0 -187.5 -49.5t-56.5 -167.5v-69h586v-969h-213v811h-373v-811h-213v807h-156z" />
<glyph unicode="&#xfb02;" horiz-adv-x="1150" d="M53 807v149l156 13v73q0 103 35 178.5t98 118.5t140 63.5t169 20.5q91 0 201 -20h156v-1403h-213v1245q-94 23 -152 23q-113 0 -167 -52t-54 -165v-82h235v-158h-235v-811h-213v807h-156z" />
<glyph unicode="&#xfb03;" horiz-adv-x="1732" d="M53 807v149l156 13v43q0 99 36.5 174t99.5 118.5t138.5 65t161.5 21.5q137 0 275 -60q114 92 319 92q172 0 313 -51l-41 -190q-43 27 -115.5 50t-142.5 23q-131 0 -187 -49.5t-56 -167.5v-69h585v-969h-213v811h-372v-811h-213v811h-375v-811h-213v807h-156zM422 969h375 v73q0 76 18 134q-88 53 -192 53q-91 0 -146 -54.5t-55 -168.5v-37z" />
<glyph unicode="&#xfb04;" horiz-adv-x="1738" d="M53 807v149l156 13v43q0 99 36.5 174t99.5 118.5t138.5 65t161.5 21.5q137 0 275 -60q114 92 317 92q93 0 203 -20h155v-1403h-213v1243q-87 25 -153 25q-113 0 -167 -52t-54 -165v-82h235v-158h-235v-811h-213v811h-373v-811h-213v807h-156zM422 969h373v73q0 76 18 134 q-83 53 -190 53q-91 0 -146 -54.5t-55 -168.5v-37z" />
<glyph horiz-adv-x="0" />
<glyph horiz-adv-x="682" />
<glyph unicode=" "  horiz-adv-x="460" />
<glyph unicode="&#x09;" horiz-adv-x="460" />
<glyph unicode="&#xa0;" horiz-adv-x="460" />
<glyph unicode="!" horiz-adv-x="587" d="M162 104q0 58 35.5 90.5t97.5 32.5q59 0 96 -31.5t37 -91.5q0 -61 -35.5 -94t-97.5 -33q-64 0 -98.5 32.5t-34.5 94.5zM193 877v454h200v-457l-20 -432h-158z" />
<glyph unicode="&#x22;" horiz-adv-x="784" d="M90 1331h223l-39 -520h-143zM471 1331h223l-41 -520h-141z" />
<glyph unicode="#" horiz-adv-x="1243" d="M70 303l24 131h185l51 275h-203l27 129h198l56 297h170l-56 -297h285l55 297h170l-55 -297h199l-27 -129h-195l-51 -275h213l-24 -131h-211l-56 -303h-170l56 303h-285l-55 -303h-170l55 303h-186zM449 434h284l51 275h-284z" />
<glyph unicode="$" horiz-adv-x="1001" d="M76 131l63 164q65 -44 150 -75t160 -34v420l-51 22.5t-49.5 22t-49.5 25t-45 26.5t-43 30t-36 33t-32 38.5t-22.5 42.5t-16 49t-4.5 55q0 128 97.5 215.5t251.5 102.5v116h110v-114q178 -6 315 -76l-57 -168q-49 35 -118.5 59.5t-139.5 28.5v-364q48 -21 75.5 -33.5 t71.5 -35.5t70.5 -42.5t58.5 -50t49.5 -61.5t29.5 -72.5t12 -87.5q0 -132 -102 -218.5t-265 -107.5v-111h-110v105q-224 3 -373 96zM293 967q0 -54 40.5 -94t115.5 -76v313q-72 -13 -114 -48.5t-42 -94.5zM559 193q79 14 126.5 54.5t47.5 102.5q0 67 -45.5 115.5 t-128.5 89.5v-362z" />
<glyph unicode="%" horiz-adv-x="1513" d="M76 1016q0 147 88.5 240.5t247.5 93.5q162 0 246.5 -87t84.5 -247q0 -138 -88 -235t-247 -97q-162 0 -247 85t-85 247zM246 1016q0 -94 36 -142.5t128 -48.5q90 0 125.5 48.5t35.5 142.5q0 192 -161 192q-92 0 -128 -51t-36 -141zM281 182l835 1049l105 -82l-832 -1040z M764 311q0 146 89 240t247 94q164 0 248 -87t84 -247q0 -89 -36 -163t-114 -122.5t-186 -48.5q-161 0 -246.5 86.5t-85.5 247.5zM936 311q0 -94 35 -142t127 -48q91 0 126.5 48t35.5 142q0 193 -162 193q-91 0 -126.5 -51.5t-35.5 -141.5z" />
<glyph unicode="&#x26;" horiz-adv-x="1531" d="M80 330q0 132 95 235.5t265 145.5q-47 167 -47 303q0 150 89 243t251 93q54 0 103.5 -13.5t97.5 -45t77 -92.5t29 -146q0 -78 -31 -147t-83.5 -120.5t-116.5 -88.5t-135 -58q76 -211 184 -313q96 138 113 344h440v-156h-303q-23 -87 -56.5 -151.5t-90.5 -131.5 q111 -84 229 -84q54 0 110 30t93 77l75 -154q-55 -58 -133.5 -89t-163.5 -31q-92 0 -191 34t-171 90q-149 -124 -352 -124q-162 0 -269.5 99t-107.5 251zM283 354q0 -97 58.5 -152t145.5 -55q118 0 209 72q-135 143 -215 371q-198 -67 -198 -236zM592 1049q0 -131 39 -281 q102 32 157.5 93t55.5 167q0 172 -119 172q-59 0 -96 -38t-37 -113z" />
<glyph unicode="'" horiz-adv-x="403" d="M90 1331h223l-43 -520h-137z" />
<glyph unicode="(" horiz-adv-x="724" d="M70 532q0 289 128.5 530t358.5 413l117 -119q-90 -76 -159 -156.5t-125.5 -180t-87 -220.5t-30.5 -256q0 -141 30 -263.5t87.5 -222.5t125.5 -179.5t161 -160.5l-107 -114q-240 170 -369.5 409t-129.5 520z" />
<glyph unicode=")" horiz-adv-x="724" d="M49 -283q93 81 161 160.5t125.5 179.5t87.5 222.5t30 263.5q0 135 -30.5 256t-87 220.5t-125.5 180t-159 156.5l117 119q230 -172 358.5 -413.5t128.5 -529.5q0 -282 -129.5 -520.5t-369.5 -408.5z" />
<glyph unicode="*" horiz-adv-x="808" d="M66 911l258 84q3 -31 26 -51l-182 -186zM66 1090l100 153l190 -176q-30 -13 -34 -55zM309 1309h183l-62 -238q-11 8 -31 8q-10 0 -30 -4zM311 690l49 248q13 -8 37 -8t33 6l62 -246h-181zM442 944q24 15 31 47l268 -82l-100 -149zM442 1065l199 176l100 -149l-268 -80 q-3 32 -31 53z" />
<glyph unicode="+" horiz-adv-x="1015" d="M82 518v148h342v321h166v-321h344v-148h-344v-328h-166v328h-342z" />
<glyph unicode="," horiz-adv-x="430" d="M6 -244q115 201 121 441h190q-3 -120 -51.5 -247.5t-122.5 -234.5z" />
<glyph unicode="-" horiz-adv-x="851" d="M154 432v182h544v-182h-544z" />
<glyph unicode="." horiz-adv-x="456" d="M96 104q0 58 35 90.5t96 32.5q60 0 97.5 -31.5t37.5 -91.5q0 -61 -35.5 -94t-99.5 -33t-97.5 32.5t-33.5 94.5z" />
<glyph unicode="/" horiz-adv-x="913" d="M51 -86l643 1491h166l-637 -1491h-172z" />
<glyph unicode="0" horiz-adv-x="1247" d="M109 639q0 711 522 711q506 0 506 -652q0 -718 -523 -718q-254 0 -379.5 164t-125.5 495zM326 682q0 -96 5.5 -165.5t23.5 -141.5t50 -117t88 -73.5t134 -28.5q72 0 125 28.5t84.5 75t51 116t26 140.5t6.5 160q0 60 -2.5 107.5t-10.5 101t-21 93.5t-36 78.5t-54.5 63 t-77 39.5t-102.5 15q-290 0 -290 -492z" />
<glyph unicode="1" horiz-adv-x="696" d="M31 1143v182l495 25v-1350h-211v1157z" />
<glyph unicode="2" horiz-adv-x="1062" d="M68 0v141q94 64 200.5 162.5t204.5 212t162.5 234.5t64.5 213q0 98 -57 154.5t-151 56.5q-72 0 -145 -39.5t-128 -102.5l-104 142q20 23 54 49t87 56.5t127 50.5t152 20q172 0 279.5 -97t107.5 -266q0 -97 -54 -212t-142 -222.5t-188 -202t-202 -168.5h645v-182h-913z " />
<glyph unicode="3" horiz-adv-x="1042" d="M59 111l109 170q145 -123 313 -123q105 0 178.5 53t73.5 147q0 85 -62 143.5t-160 86t-230 33.5v137q162 11 277.5 79t115.5 169q0 80 -57 122.5t-148 42.5q-146 0 -262 -104l-92 145q6 6 17.5 15t51.5 33t83 42t111 33t138 15q164 0 270.5 -89.5t106.5 -224.5 q0 -118 -81 -200t-216 -117q166 -31 260 -125t94 -236q0 -55 -16 -107t-53 -102t-91.5 -87t-138 -59.5t-186.5 -22.5q-131 0 -243 43t-163 88z" />
<glyph unicode="4" horiz-adv-x="1126" d="M47 309v133l608 889h217v-848h191v-174h-191v-307h-210v307h-615zM254 483h408v590z" />
<glyph unicode="5" horiz-adv-x="1044" d="M72 115l102 170q62 -62 140 -95.5t157 -33.5q104 0 181 60.5t77 166.5q0 154 -134.5 220.5t-424.5 66.5v661h741v-182h-540v-315q288 -3 431.5 -120t143.5 -319q0 -81 -29.5 -153.5t-87 -132t-154 -94.5t-220.5 -35q-105 0 -206 36t-177 99z" />
<glyph unicode="6" horiz-adv-x="1116" d="M98 616q0 347 187 539.5t510 192.5q74 0 170 -13v-186q-88 16 -162 16q-96 0 -177.5 -24.5t-148 -75t-108 -135.5t-50.5 -197q149 90 302 90q180 0 290.5 -99.5t110.5 -283.5q0 -211 -119 -335.5t-334 -124.5q-128 0 -220 44.5t-146.5 130t-79.5 199t-25 262.5zM315 561 q1 -74 8 -131.5t25.5 -110.5t48 -87.5t77.5 -55t112 -20.5q58 0 102.5 21.5t69.5 58.5t37 82t12 96q0 122 -58.5 176.5t-183.5 54.5q-76 0 -143 -25.5t-107 -58.5z" />
<glyph unicode="7" horiz-adv-x="983" d="M47 1149v182h905v-121l-555 -1208h-211l531 1147h-670z" />
<glyph unicode="8" horiz-adv-x="1118" d="M94 319q0 216 314 371q-50 30 -75 46.5t-63 44t-56.5 49.5t-39.5 53t-29 65.5t-8 75.5q0 94 60.5 169.5t158.5 116t213 40.5q184 0 298 -88.5t114 -229.5q0 -163 -285 -319q69 -35 121 -69t104.5 -79.5t80.5 -100.5t28 -116q0 -160 -137.5 -264t-335.5 -104 q-93 0 -176 22t-147.5 63.5t-102 107t-37.5 146.5zM309 336q0 -95 73 -147t191 -52q107 0 173.5 55t66.5 144q0 24 -10 48.5t-21.5 43t-38.5 42t-43 36.5t-53 36t-50.5 31t-53.5 31q-49 -27 -85.5 -52.5t-73 -59t-56 -73.5t-19.5 -83zM348 1036q0 -36 10 -62.5t40 -55.5 t64 -53t103 -68q102 69 150.5 121.5t48.5 107.5q0 80 -56.5 121t-144.5 41q-100 0 -157.5 -43t-57.5 -109z" />
<glyph unicode="9" horiz-adv-x="1116" d="M94 891q0 210 119 334.5t334 124.5q128 0 220 -44.5t146.5 -130t79.5 -199t25 -261.5q0 -347 -186.5 -540t-509.5 -193q-81 0 -170 12v188q88 -16 163 -16t142 15t126.5 48t104 82.5t73.5 122t36 162.5q-152 -88 -301 -88q-181 0 -291.5 99t-110.5 284zM309 915 q0 -122 58.5 -176.5t183.5 -54.5q76 0 143.5 26t106.5 60q-1 73 -8 130.5t-25.5 110.5t-48 87.5t-77.5 55t-112 20.5q-77 0 -128.5 -38.5t-72 -94.5t-20.5 -126z" />
<glyph unicode=":" horiz-adv-x="581" d="M158 104q0 58 35.5 90.5t97.5 32.5q60 0 96.5 -31t36.5 -92t-35 -94t-98 -33q-64 0 -98.5 32.5t-34.5 94.5zM158 795q0 58 35.5 90.5t97.5 32.5q60 0 96.5 -31t36.5 -92t-34.5 -93t-98.5 -32q-65 0 -99 32t-34 93z" />
<glyph unicode=";" horiz-adv-x="538" d="M57 -244q116 208 119 441h193q-4 -121 -53 -249t-123 -233zM139 795q0 58 35.5 90.5t97.5 32.5q60 0 97 -31t37 -92t-35 -93t-99 -32q-65 0 -99 32t-34 93z" />
<glyph unicode="&#x3c;" horiz-adv-x="962" d="M90 520v135l666 467l104 -143l-563 -389l559 -414l-102 -141z" />
<glyph unicode="=" horiz-adv-x="1218" d="M172 328v151h875v-151h-875zM172 717v151h875v-151h-875z" />
<glyph unicode="&#x3e;" horiz-adv-x="962" d="M102 979l105 143l665 -467v-135l-663 -485l-103 141l560 414z" />
<glyph unicode="?" horiz-adv-x="917" d="M51 1214q162 136 395 136q112 0 201 -33t142.5 -100t54.5 -158q0 -64 -29.5 -119.5t-73 -92t-95 -74t-95 -67.5t-73 -70.5t-29.5 -84.5q0 -51 43 -111l-211 -53q-37 84 -37 166q0 46 20.5 88.5t53 76t72 66t79 63t72 61t53 66.5t20.5 73q0 65 -55.5 100t-142.5 35 q-164 0 -275 -111zM274 104q0 58 36 90.5t98 32.5q60 0 96.5 -31t36.5 -92t-35 -94t-98 -33q-65 0 -99.5 33t-34.5 94z" />
<glyph unicode="@" horiz-adv-x="1714" d="M78 416q0 179 63.5 330t173 252t258.5 157.5t318 56.5t309 -56.5t230 -150.5t139 -214.5t49 -251.5q0 -74 -14 -147t-45.5 -142t-76 -121.5t-110.5 -84.5t-145 -32q-84 0 -145.5 36t-80.5 97q-107 -135 -272 -135q-122 0 -197 67.5t-75 184.5q0 63 25.5 111.5t66 77.5 t98.5 47.5t115 25t123 6.5q53 0 106 -6l2 97q0 89 -38 125t-115 36q-36 0 -67.5 -7t-58 -30.5t-26.5 -60.5q0 -18 6 -39l-168 -22q-12 37 -12 73q0 103 99.5 168.5t244.5 65.5q324 0 324 -295l-2 -426q0 -42 24 -66t62 -24q97 0 159 116t62 291q0 120 -41 224.5t-116.5 182 t-189.5 122.5t-253 45q-147 0 -270.5 -45.5t-214.5 -131t-142 -217t-51 -296.5q0 -202 88 -351.5t236 -224t335 -74.5q260 0 482 162l57 -90q-122 -87 -263 -135.5t-282 -48.5q-99 0 -194 20.5t-183 61t-162 105t-128.5 147.5t-85.5 194t-31 240zM655 279q0 -60 36.5 -90.5 t96.5 -30.5q112 0 203 104v146q-66 8 -114 8q-222 0 -222 -137z" />
<glyph unicode="A" horiz-adv-x="1206" d="M12 0l471 1331h238l475 -1331h-231l-113 328h-510l-109 -328h-221zM401 502h392l-93 272l-106 344l-105 -350z" />
<glyph unicode="B" horiz-adv-x="1198" d="M170 0v1331h432q412 0 412 -323q0 -95 -48 -173t-159 -118v-4q86 -13 148 -45.5t95 -78.5t47.5 -94t14.5 -102q0 -191 -115 -292t-335 -101h-492zM387 186h240q137 0 197.5 48.5t60.5 158.5t-71.5 161.5t-213.5 51.5h-213v-420zM387 776h168q110 0 171.5 51.5t61.5 147.5 q0 174 -221 174h-180v-373z" />
<glyph unicode="C" horiz-adv-x="1191" d="M92 657q0 163 48 294.5t134.5 218.5t206 133.5t262.5 46.5q103 0 201.5 -23.5t167.5 -64.5l-74 -201q-64 51 -144 78.5t-159 27.5q-199 0 -305 -129t-106 -374q0 -502 411 -502q93 0 182.5 28t151.5 70l57 -186q-181 -94 -409 -94q-299 0 -462 167.5t-163 509.5z" />
<glyph unicode="D" horiz-adv-x="1384" d="M170 0v1331h475q140 0 250 -33t183 -90.5t121 -140.5t68.5 -177.5t20.5 -205.5q0 -86 -8.5 -159.5t-29 -144.5t-53.5 -127.5t-83.5 -104.5t-117.5 -80t-157 -50t-200 -18h-469zM387 186h268q99 0 172 24t116.5 63.5t69.5 101.5t35 127.5t9 152.5q0 85 -11 154.5t-40 134 t-75 108.5t-119.5 70.5t-170.5 26.5h-254v-963z" />
<glyph unicode="E" horiz-adv-x="1103" d="M170 0v1331h825v-182h-608v-377h543v-180h-543v-406h608v-186h-825z" />
<glyph unicode="F" horiz-adv-x="1040" d="M170 0v1331h803v-182h-586v-436h524v-181h-524v-532h-217z" />
<glyph unicode="G" horiz-adv-x="1277" d="M92 662q0 139 34.5 253t95 194t145 134.5t184 80.5t211.5 26q214 0 387 -95l-74 -202q-146 114 -319 114q-207 0 -320.5 -122t-113.5 -379q0 -504 438 -504q100 0 192 37v460h213v-550q-89 -56 -207.5 -92.5t-234.5 -36.5q-111 0 -205 24t-173.5 77t-135 132t-86.5 193 t-31 256z" />
<glyph unicode="H" horiz-adv-x="1378" d="M170 0v1331h217v-555h604v555h217v-1331h-217v584h-604v-584h-217z" />
<glyph unicode="I" horiz-adv-x="557" d="M170 0v1331h217v-1331h-217z" />
<glyph unicode="J" horiz-adv-x="559" d="M-76 -150q59 15 100 34t77 51.5t53.5 83.5t17.5 122v1190h217v-1214q0 -179 -105.5 -295t-295.5 -156z" />
<glyph unicode="K" horiz-adv-x="1187" d="M170 0v1331h217v-590l100 29l406 561h246l-482 -641l531 -690h-268l-447 586l-86 -21v-565h-217z" />
<glyph unicode="L" horiz-adv-x="968" d="M170 0v1331h217v-1145h561v-186h-778z" />
<glyph unicode="M" horiz-adv-x="1710" d="M170 0v1331h256l268 -649l172 -477l168 475l260 653h246v-1333h-203v973l-125 -367l-235 -606h-234l-235 580l-139 378l2 -356v-602h-201z" />
<glyph unicode="N" horiz-adv-x="1458" d="M170 0v1331h231l459 -659l227 -342l-4 313v688h205v-1331h-217l-463 668l-233 354l2 -348v-674h-207z" />
<glyph unicode="O" horiz-adv-x="1435" d="M92 657q0 201 75 357.5t218 246t334 89.5q295 0 459.5 -174t164.5 -512q0 -196 -75 -350.5t-219.5 -244t-335.5 -89.5q-292 0 -456.5 179t-164.5 498zM324 657q0 -242 93 -368.5t296 -126.5q200 0 300.5 129.5t100.5 372.5q0 258 -95.5 380.5t-299.5 122.5 q-203 0 -299 -126t-96 -384z" />
<glyph unicode="P" horiz-adv-x="1132" d="M170 0v1331h430q477 0 477 -434q0 -207 -127 -327.5t-348 -120.5h-215v-449h-217zM387 629h205q256 0 256 258q0 131 -60.5 196.5t-203.5 65.5h-197v-520z" />
<glyph unicode="Q" horiz-adv-x="1437" d="M92 657q0 201 75 357.5t218 246t334 89.5q295 0 459.5 -174t164.5 -512q0 -212 -88.5 -376t-248.5 -243l335 -350l-180 -121l-325 416q-65 -10 -123 -10q-292 0 -456.5 179t-164.5 498zM324 657q0 -242 93 -368.5t296 -126.5q200 0 300.5 129.5t100.5 372.5 q0 258 -95.5 380.5t-299.5 122.5q-203 0 -299 -126t-96 -384z" />
<glyph unicode="R" horiz-adv-x="1206" d="M170 0v1331h418q252 0 365.5 -106.5t113.5 -311.5q0 -135 -61.5 -233t-174.5 -148l320 -532h-258l-275 487h-231v-487h-217zM387 668h195q256 0 256 239q0 129 -61.5 185.5t-203.5 56.5h-186v-481z" />
<glyph unicode="S" horiz-adv-x="1042" d="M78 98l74 205q66 -60 160.5 -101.5t176.5 -41.5q100 0 173 46t73 132q0 61 -35 108t-90.5 78.5t-123 60.5t-134.5 62.5t-122.5 76t-90.5 110t-35 155.5q0 159 122 260t309 101q205 0 376 -95l-63 -206q-48 48 -132.5 83t-164.5 35q-102 0 -159.5 -42t-57.5 -119 q0 -55 35 -97.5t90.5 -71t123 -56t134.5 -62.5t122.5 -79.5t90.5 -118t35 -167.5q0 -168 -137 -271t-341 -103q-109 0 -216 32t-193 86z" />
<glyph unicode="T" horiz-adv-x="1079" d="M23 1149v182h1034v-182h-408v-1149h-217v1149h-409z" />
<glyph unicode="U" horiz-adv-x="1390" d="M156 475v856h217v-825q0 -194 76.5 -270t248.5 -76q169 0 248.5 83.5t79.5 272.5v815h211v-846q0 -245 -147 -375t-400 -130q-534 0 -534 495z" />
<glyph unicode="V" horiz-adv-x="1177" d="M8 1331h225l265 -764l104 -374l98 374l240 764h221l-440 -1331h-250z" />
<glyph unicode="W" horiz-adv-x="1775" d="M45 1331h223l166 -739l72 -399l80 397l180 723h254l188 -719l84 -401l74 407l143 731h209l-297 -1331h-276l-164 614l-98 459l-92 -463l-156 -610h-268z" />
<glyph unicode="X" horiz-adv-x="1157" d="M23 0l438 692l-404 639h248l283 -473l286 473h218l-396 -629l447 -702h-248l-324 532l-325 -532h-223z" />
<glyph unicode="Y" horiz-adv-x="1081" d="M-6 1331h233l168 -317l162 -322l150 320l153 319h217l-420 -811v-520h-217v516z" />
<glyph unicode="Z" horiz-adv-x="1099" d="M66 0v147l460 678l230 324h-650v182h900v-160l-443 -649l-241 -338h700v-184h-956z" />
<glyph unicode="[" horiz-adv-x="638" d="M145 -365v1860h441v-145h-254v-1575h254v-140h-441z" />
<glyph unicode="\" horiz-adv-x="913" d="M53 1405h166l643 -1491h-172z" />
<glyph unicode="]" horiz-adv-x="638" d="M53 -225h256v1575h-256v145h441v-1860h-441v140z" />
<glyph unicode="^" horiz-adv-x="1048" d="M53 715l402 618h137l403 -618h-176l-301 456l-289 -456h-176z" />
<glyph unicode="_" horiz-adv-x="1146" d="M53 -92h1041v-135h-1041v135z" />
<glyph unicode="`" horiz-adv-x="921" d="M283 1348l116 137l273 -281l-80 -86z" />
<glyph unicode="a" horiz-adv-x="1046" d="M74 260q0 71 28 125t73 86.5t108.5 53t126 27.5t135.5 7q43 0 121 -4l2 104q0 100 -42 141.5t-128 41.5q-26 0 -50.5 -4t-51 -14.5t-42 -28t-23.5 -43.5q-3 -10 -3 -22q0 -19 8 -42l-186 -26q-15 44 -15 81q0 115 110.5 189t272.5 74q361 0 361 -330l-2 -428 q0 -102 63 -102q15 0 35 6l12 -154q-67 -18 -121 -18q-82 0 -128.5 40t-59.5 109q-120 -149 -303 -149q-136 0 -218.5 75t-82.5 205zM293 279q0 -66 41.5 -101t107.5 -35t124.5 34.5t99.5 84.5v160q-78 8 -125 8q-248 0 -248 -151z" />
<glyph unicode="b" d="M135 70v1333h213v-522q145 125 305 125q193 0 298.5 -132.5t105.5 -361.5q0 -245 -143 -388.5t-379 -143.5q-212 0 -400 90zM348 195q75 -41 178 -41q144 0 224.5 88t80.5 250q0 164 -64 245.5t-177 81.5q-119 0 -242 -110v-514z" />
<glyph unicode="c" horiz-adv-x="950" d="M82 483q0 242 134.5 382.5t354.5 140.5q175 0 310 -74l-68 -193q-112 92 -233 92q-131 0 -203 -89t-72 -257q0 -161 75 -245t210 -84q63 0 124 24t107 64l58 -172q-70 -45 -160.5 -68.5t-171.5 -23.5q-211 0 -338 130.5t-127 372.5z" />
<glyph unicode="d" horiz-adv-x="1146" d="M82 473q0 245 141.5 389t372.5 144q74 0 195 -25v422h213v-1403h-197l-4 129q-149 -149 -318 -149q-192 0 -297.5 132.5t-105.5 360.5zM307 494q0 -163 64.5 -244.5t177.5 -81.5q120 0 242 119v497q-79 50 -185 50q-140 0 -219.5 -89t-79.5 -251z" />
<glyph unicode="e" horiz-adv-x="1030" d="M84 496q0 118 35.5 215t97 161t142.5 99t173 35q200 0 306 -117t106 -375v-63h-643q20 -301 305 -301q72 0 146 31t125 73l57 -170q-179 -104 -373 -104q-104 0 -189 30.5t-150.5 91.5t-101.5 161.5t-36 232.5zM303 590h426q1 14 1 27q0 107 -44 167q-49 66 -151 66 q-106 0 -163 -63.5t-69 -196.5z" />
<glyph unicode="f" horiz-adv-x="731" d="M53 807v149l156 13v78q3 130 51 216t126 123t185 37q127 0 220 -41l-41 -186q-85 57 -166 57q-83 0 -122.5 -51.5t-39.5 -159.5v-73h280v-162h-280v-807h-213v807h-156z" />
<glyph unicode="g" horiz-adv-x="1095" d="M37 -205q0 175 223 260q-72 46 -72 123q0 95 172 166q-136 29 -212 112t-76 201q0 155 124.5 252t305.5 97q59 0 172.5 -18.5t245.5 -18.5h143v-144h-168q47 -68 47 -153q0 -131 -104.5 -226t-268.5 -114q-188 -54 -188 -101q0 -34 53 -46t174 -19q68 -4 117 -9.5 t102 -16.5t88.5 -29t65.5 -45t44.5 -66.5t14.5 -91.5q0 -69 -37 -135t-104 -118.5t-170 -85t-225 -32.5q-135 0 -238.5 27.5t-166 87t-62.5 143.5zM236 -158q0 -54 40 -89t101 -48.5t145 -13.5q136 0 218.5 52.5t82.5 133.5q0 43 -28.5 69.5t-76.5 38t-124 15.5 q-154 8 -193 14q-165 -61 -165 -172zM287 664q0 -49 19 -87.5t50.5 -62t69.5 -35.5t78 -12q89 0 156 53t67 148q0 96 -61.5 145t-161.5 49q-95 0 -156 -49.5t-61 -148.5z" />
<glyph unicode="h" horiz-adv-x="1153" d="M143 0v1403h213v-535q149 138 330 138q65 0 121 -16.5t106 -53.5t78.5 -106.5t28.5 -165.5v-664h-213v590q0 125 -46 174t-140 49q-135 0 -265 -113v-700h-213z" />
<glyph unicode="i" horiz-adv-x="499" d="M127 1309q0 54 36.5 91.5t90.5 37.5q53 0 90 -37.5t37 -91.5q0 -52 -37 -88.5t-90 -36.5q-54 0 -90.5 36t-36.5 89zM143 0v981h213v-981h-213z" />
<glyph unicode="j" horiz-adv-x="499" d="M-156 -279h8q291 0 291 277v983h213v-991q0 -104 -31 -185.5t-80 -130.5t-114.5 -80.5t-128.5 -42.5q-57 -10 -116 -10h-11zM127 1309q0 54 36.5 91.5t90.5 37.5q53 0 90 -37.5t37 -91.5q0 -52 -37 -88.5t-90 -36.5q-54 0 -90.5 36t-36.5 89z" />
<glyph unicode="k" horiz-adv-x="1026" d="M143 0v1403h213v-840l66 21l295 397h239l-354 -461l416 -520h-264l-322 416l-76 -17v-399h-213z" />
<glyph unicode="l" horiz-adv-x="499" d="M143 0v1403h213v-1403h-213z" />
<glyph unicode="m" horiz-adv-x="1777" d="M143 0v981h199l2 -125q150 150 322 150q221 0 299 -162q159 162 344 162q65 0 121.5 -16.5t106.5 -53.5t79 -106.5t29 -165.5v-664h-213v590q0 125 -47.5 175t-141.5 50q-55 0 -120.5 -32t-123.5 -81q2 -12 2 -38v-664h-213v590q0 126 -46.5 175.5t-141.5 49.5 q-55 0 -120.5 -32t-123.5 -83v-700h-213z" />
<glyph unicode="n" horiz-adv-x="1153" d="M143 0v981h199l2 -125q150 150 342 150q65 0 121 -16.5t106 -53.5t78.5 -106.5t28.5 -165.5v-664h-213v590q0 126 -46 175.5t-140 49.5q-133 0 -265 -115v-700h-213z" />
<glyph unicode="o" d="M82 494q0 225 132 368.5t353 143.5q232 0 360 -136.5t128 -375.5q0 -104 -32 -196.5t-92 -163.5t-153.5 -112.5t-208.5 -41.5q-229 0 -358 135t-129 379zM305 496q0 -346 258 -346q147 0 206.5 88t59.5 258q0 340 -266 340q-258 0 -258 -340z" />
<glyph unicode="p" horiz-adv-x="1146" d="M143 -451v1432h197l4 -123q152 148 318 148q192 0 297.5 -132.5t105.5 -361.5q0 -245 -142.5 -388.5t-373.5 -143.5q-86 0 -193 22v-453h-213zM356 201q74 -47 183 -47q141 0 221 88.5t80 249.5q0 164 -64.5 245.5t-177.5 81.5q-118 0 -242 -121v-497z" />
<glyph unicode="q" d="M82 473q0 247 146 390t382 143q203 0 391 -88v-1369h-213v568q-144 -137 -303 -137q-193 0 -298 132.5t-105 360.5zM307 494q0 -163 64 -244.5t176 -81.5q122 0 241 119v501q-82 46 -184 46q-140 0 -218.5 -89t-78.5 -251z" />
<glyph unicode="r" horiz-adv-x="735" d="M143 0v981h195l6 -182q120 194 291 194q33 0 74 -6l-17 -217q-39 16 -96 16q-126 0 -240 -147v-639h-213z" />
<glyph unicode="s" horiz-adv-x="888" d="M76 61l55 187q43 -40 120 -71.5t148 -31.5q193 0 193 125q0 39 -27.5 68t-71.5 48.5t-97 38t-106 42.5t-97 55.5t-71.5 84t-27.5 120.5q0 67 32.5 121.5t85 88t116.5 51.5t131 18q192 0 327 -78l-61 -185q-33 40 -100.5 69.5t-151.5 29.5q-36 0 -70.5 -9t-63 -36 t-28.5 -68q0 -28 21.5 -51t57 -38.5t80.5 -33.5t92 -35t92 -43.5t80.5 -58t57 -80t21.5 -108.5q0 -65 -23.5 -117.5t-62.5 -86t-93 -56t-111 -32t-120 -9.5q-90 0 -177.5 22t-149.5 59z" />
<glyph unicode="t" horiz-adv-x="806" d="M47 807v149l150 15l26 260h185v-262h321v-162h-321v-461q1 -106 39 -149t116 -43q94 0 178 69l39 -174q-132 -69 -276 -69q-146 0 -227.5 76t-81.5 255v496h-148z" />
<glyph unicode="u" horiz-adv-x="1148" d="M133 322v659h213v-596q0 -127 44.5 -177t135.5 -50q122 0 267 127v696h213v-981h-193l-8 129q-152 -152 -334 -152q-53 0 -98.5 8.5t-91 32t-77 61t-51.5 100t-20 143.5z" />
<glyph unicode="v" horiz-adv-x="1013" d="M20 981h226l178 -510l88 -301l88 307l172 504h225l-362 -981h-264z" />
<glyph unicode="w" horiz-adv-x="1579" d="M41 981h225l123 -500l64 -299l77 297l148 502h235l154 -526l68 -273l55 275l127 524h221l-278 -981h-259l-133 428l-80 326l-81 -328l-142 -426h-254z" />
<glyph unicode="x" horiz-adv-x="974" d="M27 0l342 514l-301 467h231l195 -315l194 315h221l-303 -455l340 -526h-231l-234 377l-241 -377h-213z" />
<glyph unicode="y" horiz-adv-x="1007" d="M16 981h228l174 -479l98 -289l92 283l170 485h213l-534 -1432h-209l149 406z" />
<glyph unicode="z" horiz-adv-x="960" d="M68 0v131l522 678h-490v172h768v-131l-526 -678h543v-172h-817z" />
<glyph unicode="{" horiz-adv-x="710" d="M61 494v137q44 0 52 2q64 3 95.5 27t31.5 75v432q0 57 7 101.5t28.5 88.5t57.5 73t97 47t143 18h84v-131h-73q-57 0 -92.5 -11t-53.5 -37.5t-24 -59t-6 -87.5v-321q0 -60 -6.5 -102.5t-23 -81t-49.5 -63.5t-83 -38q63 -12 100 -53t49.5 -95t12.5 -132v-330 q0 -56 4.5 -86.5t21 -57t50.5 -37t91 -10.5h82v-133h-90q-83 0 -142.5 15.5t-95 42t-56 70t-27 89.5t-6.5 111v432q0 52 -30.5 76t-94.5 27q-8 2 -54 2z" />
<glyph unicode="|" horiz-adv-x="503" d="M168 -20v1425h168v-1425h-168z" />
<glyph unicode="}" horiz-adv-x="710" d="M53 -238h84q56 0 90 10.5t50.5 37t21 57.5t4.5 86v330q0 119 36 190.5t126 89.5q-50 13 -83 38t-49.5 63.5t-23 81t-6.5 102.5v321q0 54 -6 87t-24 59.5t-53 37.5t-91 11h-76v131h86q82 0 143 -18t96.5 -47t57 -73t28.5 -88.5t7 -101.5v-432q0 -53 35 -77t104 -27h39 v-137h-41q-71 -3 -104 -27t-33 -78v-432q0 -82 -11.5 -136.5t-45 -101t-100 -68.5t-169.5 -22h-92v133z" />
<glyph unicode="~" horiz-adv-x="1228" d="M66 537q79 127 157 174t168 47q65 0 137 -26.5t123 -58.5t107 -58.5t94 -26.5q57 0 100 41t103 139l108 -78q-82 -141 -162.5 -195.5t-169.5 -54.5q-60 0 -124 27t-109.5 59t-105.5 59t-113 27q-54 0 -103.5 -37.5t-105.5 -115.5z" />
<glyph unicode="&#xa1;" horiz-adv-x="505" d="M117 840q0 61 35.5 94t97.5 33q64 0 98.5 -32.5t34.5 -94.5q0 -58 -35.5 -90.5t-97.5 -32.5q-59 0 -96 31.5t-37 91.5zM152 70l20 432h158l22 -434v-455h-200v457z" />
<glyph unicode="&#xa2;" horiz-adv-x="966" d="M88 483q0 218 112.5 355t301.5 161v164h127v-159q137 -8 258 -72l-68 -193q-89 74 -190 86v-667q111 12 198 86l58 -172q-110 -71 -256 -88v-136h-127v134q-190 15 -302 144.5t-112 356.5zM311 485q0 -262 191 -317v649q-93 -25 -142 -109t-49 -223z" />
<glyph unicode="&#xa3;" horiz-adv-x="1222" d="M88 0v131q89 10 143 88t54 168v203h-174v149h174v144q0 114 36.5 204.5t99 147t143.5 86t173 29.5q196 0 332 -115l-96 -156q-59 56 -110.5 78.5t-114.5 22.5q-250 0 -250 -295v-146h454v-149h-454v-121q0 -100 -30 -170.5t-106 -126.5h418q114 0 176 35.5t105 101.5 l104 -135q-15 -29 -40 -57t-64 -55.5t-98 -44.5t-129 -17h-746z" />
<glyph unicode="&#xa4;" horiz-adv-x="1054" d="M72 172l200 199q-53 83 -53 170q0 88 53 161q-188 188 -200 199l82 86l204 -201q79 48 166 48q88 0 170 -50l207 201l84 -82l-205 -201q54 -68 54 -161q0 -91 -54 -168l205 -201l-86 -74l-203 195q-71 -49 -168 -49q-86 0 -170 49l-202 -197zM379 539q0 -70 41 -114 t108 -44q66 0 107 45.5t41 112.5q0 68 -40 110.5t-108 42.5q-69 0 -109 -42t-40 -111z" />
<glyph unicode="&#xa5;" horiz-adv-x="1185" d="M51 1331h234l168 -317l161 -322l150 320l154 319h217l-371 -715h260v-149h-309v-148h309v-149h-309v-170h-217v170h-314v149h314v148h-314v149h258z" />
<glyph unicode="&#xa6;" horiz-adv-x="550" d="M190 -20v612h170v-612h-170zM190 815v590h170v-590h-170z" />
<glyph unicode="&#xa7;" horiz-adv-x="1089" d="M53 -403l4 182q59 -37 121 -56.5t109 -19.5q62 0 110 14t82 50.5t35 93.5q0 74 -56 222t-123 289t-123 289t-56 222q0 109 61.5 200.5t157 148t204.5 87.5t212 31q120 0 239 -27l-4 -180q-62 38 -139.5 61t-136.5 23q-73 0 -109.5 -43.5t-36.5 -118.5q0 -68 55.5 -216 t121.5 -291t121.5 -291t55.5 -216q0 -80 -34.5 -150.5t-92 -122t-129 -92.5t-149 -65.5t-149.5 -37.5t-132 -13q-119 0 -219 27zM303 911q0 -63 36.5 -165.5t88 -213.5t103 -224t88 -224t36.5 -186q0 -61 -26 -101q94 45 139 101.5t45 136.5q-1 66 -37 171.5t-87 218.5 t-102 227t-86.5 224t-35.5 183q0 72 37 115q-93 -45 -146 -120.5t-53 -142.5z" />
<glyph unicode="&#xa8;" horiz-adv-x="921" d="M168 1278q0 47 34 81t81 34t80.5 -34t33.5 -81t-33.5 -80t-80.5 -33t-81 33t-34 80zM537 1278q0 47 33.5 81t80.5 34t81 -34t34 -81t-34 -80t-81 -33t-80.5 33t-33.5 80z" />
<glyph unicode="&#xa9;" horiz-adv-x="1470" d="M92 641q0 134 51 256t137 209.5t204 139.5t247 52q133 0 253 -51.5t207 -139.5t138 -210t51 -256q0 -133 -50 -254t-136 -209t-207 -140t-256 -52q-129 0 -247 52t-204 140t-137 209t-51 254zM184 641q0 -124 44.5 -232.5t119 -183t174.5 -117t209 -42.5q117 0 220 43 t177 118.5t117 183t43 230.5q0 156 -73 288t-201.5 210t-282.5 78q-151 0 -276 -73.5t-198 -206t-73 -296.5zM338 637q0 201 119.5 311.5t316.5 110.5q147 0 248 -58l-49 -133q-95 70 -205 70q-127 0 -197.5 -76t-70.5 -221q0 -148 69.5 -221.5t198.5 -73.5q61 0 122.5 18.5 t102.5 45.5l39 -127q-122 -58 -276 -58q-199 0 -308.5 102.5t-109.5 309.5z" />
<glyph unicode="&#xaa;" horiz-adv-x="909" d="M78 778q0 53 23 93.5t60 65.5t88.5 41t103.5 22t110 6q41 0 61 -2h37v81q0 132 -135 132q-48 0 -90 -19.5t-43 -60.5q0 -14 6 -35l-158 -21q-14 35 -14 66q0 89 90.5 146t224.5 57q63 0 115 -13t94.5 -41.5t66.5 -78.5t25 -119l-2 -332q0 -71 43 -74q9 0 33 8l10 -122 q-59 -15 -102 -15q-62 0 -101 27.5t-51 75.5q-100 -103 -245 -103q-112 0 -181 57.5t-69 157.5zM264 801q0 -105 117 -105q52 0 99.5 24t80.5 58v133q-40 7 -104 7q-84 0 -138.5 -29t-54.5 -88z" />
<glyph unicode="&#xab;" horiz-adv-x="976" d="M51 479l266 473h177l-220 -465l220 -481h-177zM469 479l264 473h176l-219 -465l219 -481h-176z" />
<glyph unicode="&#xac;" horiz-adv-x="1456" d="M102 539v133h1223v-553h-158v420h-1065z" />
<glyph unicode="&#xad;" horiz-adv-x="851" d="M154 432v182h544v-182h-544z" />
<glyph unicode="&#xae;" horiz-adv-x="1175" d="M94 846q0 103 39 196.5t105 160.5t156.5 107t189.5 40q135 0 249 -67.5t180 -183.5t66 -253q0 -140 -66.5 -255.5t-180 -181t-248.5 -65.5q-132 0 -245 67.5t-179 183t-66 251.5zM176 846q0 -190 119.5 -310t288.5 -120q181 0 297 119.5t116 310.5q0 115 -52.5 213.5 t-148 157.5t-212.5 59q-176 0 -292 -120.5t-116 -309.5zM367 528v648h225q133 0 192.5 -54t59.5 -155q0 -70 -34 -119.5t-95 -73.5l127 -246h-142l-104 226h-100v-226h-129zM496 846h90q60 0 91.5 27t31.5 92q0 63 -27.5 88.5t-99.5 25.5h-86v-233z" />
<glyph unicode="&#xaf;" horiz-adv-x="921" d="M199 1214v142h524v-142h-524z" />
<glyph unicode="&#xb0;" horiz-adv-x="718" d="M70 1079q0 120 81 195.5t211 75.5t208.5 -72.5t78.5 -198.5q0 -124 -79 -199t-208 -75q-133 0 -212.5 74.5t-79.5 199.5zM197 1079q0 -77 44 -124.5t121 -47.5q74 0 115 48t41 124q0 77 -40.5 121.5t-115.5 44.5q-79 0 -122 -44.5t-43 -121.5z" />
<glyph unicode="&#xb1;" horiz-adv-x="1052" d="M100 -4v145h852v-145h-852zM100 547v145h342v295h166v-295h344v-145h-344v-289h-166v289h-342z" />
<glyph unicode="&#xb2;" horiz-adv-x="651" d="M47 778v94q52 34 111 85t113.5 109.5t90 121.5t35.5 110q0 48 -26.5 72.5t-67.5 24.5q-35 0 -80 -26.5t-78 -59.5l-77 90q14 16 33.5 32t52 37.5t78.5 34.5t96 13q105 0 171 -56t66 -149t-89 -206t-208 -202h332v-125h-553z" />
<glyph unicode="&#xb3;" horiz-adv-x="638" d="M37 848l78 113q79 -72 174 -72q49 0 88 26.5t39 69.5q0 57 -64 87.5t-174 35.5v88q88 5 146.5 38t58.5 83q0 35 -29 56.5t-71 21.5q-76 0 -150 -60l-67 97q4 3 11.5 9t33 20.5t52.5 25.5t69 20t85 9q100 0 166 -51.5t66 -127.5q0 -55 -35.5 -97.5t-97.5 -68.5 q79 -24 122.5 -73t43.5 -119q0 -84 -73 -147.5t-220 -63.5q-79 0 -147.5 26t-104.5 54z" />
<glyph unicode="&#xb4;" horiz-adv-x="921" d="M283 1204l272 281l117 -137l-310 -230z" />
<glyph unicode="&#xb5;" horiz-adv-x="1146" d="M127 -451v1432h213v-596q0 -127 44.5 -176t135.5 -49q123 0 266 125v696h213v-981h-192l-8 129q-152 -152 -334 -152q-49 0 -97.5 11.5t-72.5 36.5q45 -99 45 -218v-258h-213z" />
<glyph unicode="&#xb6;" horiz-adv-x="1161" d="M53 801q0 103 39.5 196.5t114 168.5t195.5 120t272 45v-1782h-174v740q-212 60 -329.5 196t-117.5 316zM840 -451v1782h174v-1782h-174z" />
<glyph unicode="&#xb7;" horiz-adv-x="487" d="M115 604q0 54 36.5 89.5t92.5 35.5q55 0 92 -35t37 -90q0 -57 -37 -92t-92 -35q-56 0 -92.5 34.5t-36.5 92.5z" />
<glyph unicode="&#xb8;" horiz-adv-x="921" d="M260 -424l45 119q51 -51 127 -51q44 0 69 18.5t25 50.5q0 41 -42 66t-124 28l58 216h110l-34 -138q92 -14 140 -63.5t48 -116.5q0 -80 -69.5 -128t-170.5 -48q-50 0 -100.5 13.5t-81.5 33.5z" />
<glyph unicode="&#xb9;" horiz-adv-x="452" d="M27 1378v123l321 15v-738h-164v608z" />
<glyph unicode="&#xba;" horiz-adv-x="942" d="M74 958q0 172 108.5 282t290.5 110q190 0 294.5 -104.5t104.5 -287.5q0 -168 -106 -281.5t-293 -113.5q-188 0 -293.5 103.5t-105.5 291.5zM264 958q0 -127 47.5 -191.5t157.5 -64.5q118 0 164.5 64.5t46.5 191.5q0 118 -47.5 186t-163.5 68q-112 0 -158.5 -67 t-46.5 -187z" />
<glyph unicode="&#xbb;" horiz-adv-x="976" d="M68 6l221 481l-221 465h176l266 -473l-266 -473h-176zM485 6l220 481l-220 465h177l264 -473l-264 -473h-177z" />
<glyph unicode="&#xbc;" horiz-adv-x="1531" d="M53 1223v123l322 14v-737h-164v608zM248 154l942 1136l94 -76l-940 -1134zM850 164v86l346 477h158v-446h106v-117h-106v-162h-164v162h-340zM999 281h191v268z" />
<glyph unicode="&#xbd;" horiz-adv-x="1613" d="M53 1223v123l322 14v-737h-164v608zM248 154l942 1136l94 -76l-940 -1134zM981 0v94q52 34 111 85t113.5 109.5t90 121.5t35.5 110q0 48 -26.5 72t-67.5 24q-35 0 -80 -26.5t-78 -59.5l-78 91q13 15 33 31.5t53 37.5t79 34t96 13q105 0 171 -56t66 -149t-88.5 -205.5 t-208.5 -201.5h332v-125h-553z" />
<glyph unicode="&#xbe;" horiz-adv-x="1634" d="M80 692l78 113q79 -72 174 -72q49 0 88 26.5t39 69.5q0 57 -64 87.5t-174 35.5v88q88 5 146.5 38t58.5 83q0 35 -29 56.5t-71 21.5q-78 0 -150 -59l-67 96q4 3 11.5 9t33 20.5t52.5 25.5t69 20t85 9q100 0 166 -51t66 -127q0 -55 -35.5 -97.5t-97.5 -68.5 q78 -24 122 -73.5t44 -119.5q0 -84 -73 -147.5t-220 -63.5q-79 0 -147.5 26t-104.5 54zM369 154l942 1136l94 -76l-940 -1134zM952 164v86l346 477h158v-446h107v-117h-107v-162h-164v162h-340zM1102 281h190v268z" />
<glyph unicode="&#xbf;" horiz-adv-x="899" d="M51 -113q0 64 29.5 119.5t73 92t95 74t95 67.5t73 70.5t29.5 84.5q0 51 -43 111l211 53q37 -84 37 -166q0 -53 -27.5 -102t-68.5 -85t-89 -75t-89 -71.5t-68.5 -74.5t-27.5 -85q0 -65 55.5 -100.5t142.5 -35.5q164 0 275 111l90 -143q-161 -135 -395 -135 q-112 0 -200.5 32.5t-142.5 99.5t-55 158zM354 842q0 61 35 94t98 33q65 0 99.5 -33t34.5 -94q0 -58 -36 -90.5t-98 -32.5q-60 0 -96.5 31t-36.5 92z" />
<glyph unicode="&#xc0;" horiz-adv-x="1206" d="M12 0l471 1331h238l475 -1331h-231l-113 328h-510l-109 -328h-221zM303 1567l76 168l358 -219l-53 -105zM401 502h392l-93 272l-106 344l-105 -350z" />
<glyph unicode="&#xc1;" horiz-adv-x="1206" d="M12 0l471 1331h238l475 -1331h-231l-113 328h-510l-109 -328h-221zM401 502h392l-93 272l-106 344l-105 -350zM451 1516l356 219l78 -168l-383 -156z" />
<glyph unicode="&#xc2;" horiz-adv-x="1206" d="M12 0l471 1331h238l475 -1331h-231l-113 328h-510l-109 -328h-221zM299 1536l252 205h104l250 -201l-82 -108l-225 159l-221 -159zM401 502h392l-93 272l-106 344l-105 -350z" />
<glyph unicode="&#xc3;" horiz-adv-x="1206" d="M12 0l471 1331h238l475 -1331h-231l-113 328h-510l-109 -328h-221zM258 1544q94 142 209 142q52 0 137 -30t125 -30q77 0 131 64l70 -76q-40 -64 -97 -101.5t-116 -37.5q-42 0 -127 30.5t-127 30.5q-82 0 -135 -63zM401 502h392l-93 272l-106 344l-105 -350z" />
<glyph unicode="&#xc4;" horiz-adv-x="1206" d="M12 0l471 1331h238l475 -1331h-231l-113 328h-510l-109 -328h-221zM285 1589q0 47 33.5 81t80.5 34t81 -34t34 -81t-34 -80.5t-81 -33.5t-80.5 33.5t-33.5 80.5zM401 502h392l-93 272l-106 344l-105 -350zM674 1589q0 47 33.5 81t80.5 34t81 -34t34 -81t-34 -80.5 t-81 -33.5t-80.5 33.5t-33.5 80.5z" />
<glyph unicode="&#xc5;" horiz-adv-x="1206" d="M12 0l471 1331h238l475 -1331h-231l-113 328h-510l-109 -328h-221zM377 1610q0 94 64 148t157 54q95 0 155 -52t60 -150q0 -86 -60.5 -145.5t-158.5 -59.5t-157.5 57t-59.5 148zM401 502h392l-93 272l-106 344l-105 -350zM498 1610q0 -103 96 -103q51 0 73.5 26t22.5 77 q0 52 -23 77t-73 25t-73 -25t-23 -77z" />
<glyph unicode="&#xc6;" horiz-adv-x="1736" d="M-10 0l735 1331h905v-182h-608v-377h543v-180h-543v-406h606v-186h-823v328h-420l-174 -328h-221zM475 498h330v618z" />
<glyph unicode="&#xc7;" horiz-adv-x="1191" d="M92 657q0 163 48 294.5t134.5 218.5t206 133.5t262.5 46.5q103 0 201.5 -23.5t167.5 -64.5l-74 -201q-64 51 -144 78.5t-159 27.5q-199 0 -305 -129t-106 -374q0 -502 411 -502q93 0 182.5 28t151.5 70l57 -186q-159 -85 -372 -94l-23 -95q92 -14 140.5 -63.5 t48.5 -116.5q0 -80 -69.5 -128t-170.5 -48q-50 0 -100.5 13.5t-81.5 33.5l45 119q51 -51 127 -51q44 0 69 18.5t25 50.5q0 41 -42 66t-124 28l45 175q-265 19 -408 186.5t-143 488.5z" />
<glyph unicode="&#xc8;" horiz-adv-x="1103" d="M170 0v1331h825v-182h-608v-377h543v-180h-543v-406h608v-186h-825zM348 1567l76 168l358 -219l-53 -105z" />
<glyph unicode="&#xc9;" horiz-adv-x="1103" d="M170 0v1331h825v-182h-608v-377h543v-180h-543v-406h608v-186h-825zM418 1516l356 219l78 -168l-383 -156z" />
<glyph unicode="&#xca;" horiz-adv-x="1103" d="M170 0v1331h825v-182h-608v-377h543v-180h-543v-406h608v-186h-825zM293 1536l252 205h104l250 -201l-82 -108l-225 159l-221 -159z" />
<glyph unicode="&#xcb;" horiz-adv-x="1103" d="M170 0v1331h825v-182h-608v-377h543v-180h-543v-406h608v-186h-825zM289 1589q0 47 33.5 81t80.5 34t81 -34t34 -81t-34 -80.5t-81 -33.5t-80.5 33.5t-33.5 80.5zM678 1589q0 47 34 81t81 34t80.5 -34t33.5 -81t-33.5 -80.5t-80.5 -33.5t-81 33.5t-34 80.5z" />
<glyph unicode="&#xcc;" horiz-adv-x="557" d="M-20 1567l75 168l359 -219l-54 -105zM170 0v1331h217v-1331h-217z" />
<glyph unicode="&#xcd;" horiz-adv-x="557" d="M117 1516l356 219l78 -168l-383 -156zM170 0v1331h217v-1331h-217z" />
<glyph unicode="&#xce;" horiz-adv-x="557" d="M-31 1536l252 205h105l249 -201l-81 -108l-226 159l-221 -159zM170 0v1331h217v-1331h-217z" />
<glyph unicode="&#xcf;" horiz-adv-x="557" d="M-33 1589q0 47 34 81t81 34t81 -34t34 -81t-34 -80.5t-81 -33.5t-81 33.5t-34 80.5zM170 0v1331h217v-1331h-217zM356 1589q0 47 34 81t81 34t81 -34t34 -81t-34 -80.5t-81 -33.5t-81 33.5t-34 80.5z" />
<glyph unicode="&#xd0;" horiz-adv-x="1384" d="M39 592v168h131v571h475q140 0 250 -33t183 -90.5t121 -140.5t68.5 -177.5t20.5 -205.5q0 -86 -8.5 -159.5t-29 -144.5t-53.5 -127.5t-83.5 -104.5t-117.5 -80t-157 -50t-200 -18h-469v592h-131zM387 186h268q99 0 172 24t116.5 63.5t69.5 101.5t35 127.5t9 152.5 q0 85 -11 154.5t-40 134t-75 108.5t-119.5 70.5t-170.5 26.5h-254v-389h244v-168h-244v-406z" />
<glyph unicode="&#xd1;" horiz-adv-x="1458" d="M170 0v1331h231l459 -659l227 -342l-4 313v688h205v-1331h-217l-463 668l-233 354l2 -348v-674h-207zM420 1544q94 142 209 142q52 0 137 -30t125 -30q77 0 131 64l70 -76q-40 -64 -97 -101.5t-116 -37.5q-42 0 -127 30.5t-127 30.5q-83 0 -136 -63z" />
<glyph unicode="&#xd2;" horiz-adv-x="1435" d="M92 657q0 201 75 357.5t218 246t334 89.5q295 0 459.5 -174t164.5 -512q0 -196 -75 -350.5t-219.5 -244t-335.5 -89.5q-292 0 -456.5 179t-164.5 498zM324 657q0 -242 93 -368.5t296 -126.5q200 0 300.5 129.5t100.5 372.5q0 258 -95.5 380.5t-299.5 122.5 q-203 0 -299 -126t-96 -384zM444 1567l76 168l359 -219l-54 -105z" />
<glyph unicode="&#xd3;" horiz-adv-x="1435" d="M92 657q0 201 75 357.5t218 246t334 89.5q295 0 459.5 -174t164.5 -512q0 -196 -75 -350.5t-219.5 -244t-335.5 -89.5q-292 0 -456.5 179t-164.5 498zM324 657q0 -242 93 -368.5t296 -126.5q200 0 300.5 129.5t100.5 372.5q0 258 -95.5 380.5t-299.5 122.5 q-203 0 -299 -126t-96 -384zM563 1516l357 219l77 -168l-383 -156z" />
<glyph unicode="&#xd4;" horiz-adv-x="1435" d="M92 657q0 201 75 357.5t218 246t334 89.5q295 0 459.5 -174t164.5 -512q0 -196 -75 -350.5t-219.5 -244t-335.5 -89.5q-292 0 -456.5 179t-164.5 498zM324 657q0 -242 93 -368.5t296 -126.5q200 0 300.5 129.5t100.5 372.5q0 258 -95.5 380.5t-299.5 122.5 q-203 0 -299 -126t-96 -384zM432 1536l252 205h104l250 -201l-82 -108l-225 159l-221 -159z" />
<glyph unicode="&#xd5;" horiz-adv-x="1435" d="M92 657q0 201 75 357.5t218 246t334 89.5q295 0 459.5 -174t164.5 -512q0 -196 -75 -350.5t-219.5 -244t-335.5 -89.5q-292 0 -456.5 179t-164.5 498zM324 657q0 -242 93 -368.5t296 -126.5q200 0 300.5 129.5t100.5 372.5q0 258 -95.5 380.5t-299.5 122.5 q-203 0 -299 -126t-96 -384zM387 1544q94 142 209 142q52 0 137 -30t125 -30q77 0 131 64l70 -76q-40 -64 -97 -101.5t-116 -37.5q-42 0 -127 30.5t-127 30.5q-82 0 -135 -63z" />
<glyph unicode="&#xd6;" horiz-adv-x="1435" d="M92 657q0 201 75 357.5t218 246t334 89.5q295 0 459.5 -174t164.5 -512q0 -196 -75 -350.5t-219.5 -244t-335.5 -89.5q-292 0 -456.5 179t-164.5 498zM324 657q0 -242 93 -368.5t296 -126.5q200 0 300.5 129.5t100.5 372.5q0 258 -95.5 380.5t-299.5 122.5 q-203 0 -299 -126t-96 -384zM399 1589q0 47 34 81t81 34t81 -34t34 -81t-34 -80.5t-81 -33.5t-81 33.5t-34 80.5zM788 1589q0 47 34 81t81 34t81 -34t34 -81t-34 -80.5t-81 -33.5t-81 33.5t-34 80.5z" />
<glyph unicode="&#xd7;" horiz-adv-x="903" d="M104 350l240 225l-238 224l115 108l236 -223l237 225l109 -102l-240 -221l242 -232l-115 -106l-241 227l-236 -225z" />
<glyph unicode="&#xd8;" horiz-adv-x="1435" d="M78 -10l155 194q-141 176 -141 473q0 201 75 357.5t218 246t334 89.5q224 0 375 -103l75 94h187l-156 -192q143 -179 143 -485q0 -196 -75 -350.5t-219.5 -244t-335.5 -89.5q-223 0 -373 104l-76 -94h-186zM324 657q0 -185 51 -299l594 736q-91 73 -250 73 q-203 0 -299 -126t-96 -384zM465 238q92 -76 248 -76q200 0 300.5 129.5t100.5 372.5q0 199 -53 311z" />
<glyph unicode="&#xd9;" horiz-adv-x="1390" d="M156 475v856h217v-825q0 -194 76.5 -270t248.5 -76q169 0 248.5 83.5t79.5 272.5v815h211v-846q0 -245 -147 -375t-400 -130q-534 0 -534 495zM432 1567l76 168l358 -219l-53 -105z" />
<glyph unicode="&#xda;" horiz-adv-x="1390" d="M156 475v856h217v-825q0 -194 76.5 -270t248.5 -76q169 0 248.5 83.5t79.5 272.5v815h211v-846q0 -245 -147 -375t-400 -130q-534 0 -534 495zM543 1516l356 219l78 -168l-383 -156z" />
<glyph unicode="&#xdb;" horiz-adv-x="1390" d="M156 475v856h217v-825q0 -194 76.5 -270t248.5 -76q169 0 248.5 83.5t79.5 272.5v815h211v-846q0 -245 -147 -375t-400 -130q-534 0 -534 495zM395 1536l252 205h105l249 -201l-81 -108l-226 159l-221 -159z" />
<glyph unicode="&#xdc;" horiz-adv-x="1390" d="M156 475v856h217v-825q0 -194 76.5 -270t248.5 -76q169 0 248.5 83.5t79.5 272.5v815h211v-846q0 -245 -147 -375t-400 -130q-534 0 -534 495zM381 1589q0 47 34 81t81 34t80.5 -34t33.5 -81t-33.5 -80.5t-80.5 -33.5t-81 33.5t-34 80.5zM770 1589q0 47 34 81t81 34 t80.5 -34t33.5 -81t-33.5 -80.5t-80.5 -33.5t-81 33.5t-34 80.5z" />
<glyph unicode="&#xdd;" horiz-adv-x="1081" d="M-6 1331h233l168 -317l162 -322l150 320l153 319h217l-420 -811v-520h-217v516zM377 1516l356 219l78 -168l-383 -156z" />
<glyph unicode="&#xde;" d="M170 0v1331h217v-170h213q477 0 477 -436q0 -206 -127.5 -327.5t-347.5 -121.5h-215v-276h-217zM387 465h205q123 0 189.5 60t66.5 196q0 129 -60 192.5t-204 63.5h-197v-512z" />
<glyph unicode="&#xdf;" horiz-adv-x="1329" d="M53 807v149l156 13v49q0 105 37 185t101 126.5t142 70t168 23.5q208 0 308 -79t100 -218q0 -49 -28 -93.5t-67.5 -78t-79 -65.5t-67.5 -70t-28 -78q0 -35 27 -63t70 -47.5t95.5 -39t104.5 -45t95 -58.5t70 -86t27 -121q0 -65 -23.5 -117.5t-62.5 -86t-93 -56t-111 -32 t-120 -9.5q-90 0 -177.5 22t-149.5 59l55 187q43 -40 120 -71.5t148 -31.5q193 0 193 125q0 34 -21 61.5t-55 44.5t-77.5 35.5t-89 34t-89 39.5t-77.5 53t-55 75t-21 104q0 60 26.5 111t64 86t75 66.5t64 65.5t26.5 68q0 62 -48 100.5t-139 38.5q-112 0 -168.5 -64.5 t-56.5 -201.5v-987h-213v807h-156z" />
<glyph unicode="&#xe0;" horiz-adv-x="1046" d="M74 260q0 71 28 125t73 86.5t108.5 53t126 27.5t135.5 7q43 0 121 -4l2 104q0 100 -42 141.5t-128 41.5q-26 0 -50.5 -4t-51 -14.5t-42 -28t-23.5 -44t5 -63.5l-186 -26q-15 44 -15 81q0 115 110.5 189t272.5 74q361 0 361 -330l-2 -428q0 -127 98 -96l12 -154 q-67 -18 -121 -18q-82 0 -128.5 40t-59.5 109q-120 -149 -303 -149q-136 0 -218.5 75t-82.5 205zM231 1348l117 137l273 -281l-80 -86zM293 279q0 -66 41.5 -101t107.5 -35t124.5 34.5t99.5 84.5v160q-78 8 -125 8q-248 0 -248 -151z" />
<glyph unicode="&#xe1;" horiz-adv-x="1046" d="M74 260q0 71 28 125t73 86.5t108.5 53t126 27.5t135.5 7q43 0 121 -4l2 104q0 100 -42 141.5t-128 41.5q-26 0 -50.5 -4t-51 -14.5t-42 -28t-23.5 -44t5 -63.5l-186 -26q-15 44 -15 81q0 115 110.5 189t272.5 74q361 0 361 -330l-2 -428q0 -127 98 -96l12 -154 q-67 -18 -121 -18q-82 0 -128.5 40t-59.5 109q-120 -149 -303 -149q-136 0 -218.5 75t-82.5 205zM293 279q0 -66 41.5 -101t107.5 -35t124.5 34.5t99.5 84.5v160q-78 8 -125 8q-248 0 -248 -151zM373 1204l272 281l117 -137l-309 -230z" />
<glyph unicode="&#xe2;" horiz-adv-x="1046" d="M74 260q0 71 28 125t73 86.5t108.5 53t126 27.5t135.5 7q43 0 121 -4l2 104q0 100 -42 141.5t-128 41.5q-26 0 -50.5 -4t-51 -14.5t-42 -28t-23.5 -44t5 -63.5l-186 -26q-15 44 -15 81q0 115 110.5 189t272.5 74q361 0 361 -330l-2 -428q0 -127 98 -96l12 -154 q-67 -18 -121 -18q-82 0 -128.5 40t-59.5 109q-120 -149 -303 -149q-136 0 -218.5 75t-82.5 205zM197 1196l264 250h102l256 -246l-104 -98l-207 190l-213 -190zM293 279q0 -66 41.5 -101t107.5 -35t124.5 34.5t99.5 84.5v160q-78 8 -125 8q-248 0 -248 -151z" />
<glyph unicode="&#xe3;" horiz-adv-x="1046" d="M74 260q0 71 28 125t73 86.5t108.5 53t126 27.5t135.5 7q43 0 121 -4l2 104q0 100 -42 141.5t-128 41.5q-26 0 -50.5 -4t-51 -14.5t-42 -28t-23.5 -44t5 -63.5l-186 -26q-15 44 -15 81q0 115 110.5 189t272.5 74q361 0 361 -330l-2 -428q0 -127 98 -96l12 -154 q-67 -18 -121 -18q-82 0 -128.5 40t-59.5 109q-120 -149 -303 -149q-136 0 -218.5 75t-82.5 205zM180 1253q95 142 211 142q52 0 127 -29t115 -29q79 0 131 64l67 -78q-41 -64 -96 -101.5t-114 -37.5q-42 0 -117.5 31.5t-118.5 31.5q-76 0 -135 -63zM293 279 q0 -66 41.5 -101t107.5 -35t124.5 34.5t99.5 84.5v160q-78 8 -125 8q-248 0 -248 -151z" />
<glyph unicode="&#xe4;" horiz-adv-x="1046" d="M74 260q0 71 28 125t73 86.5t108.5 53t126 27.5t135.5 7q43 0 121 -4l2 104q0 100 -42 141.5t-128 41.5q-26 0 -50.5 -4t-51 -14.5t-42 -28t-23.5 -44t5 -63.5l-186 -26q-15 44 -15 81q0 115 110.5 189t272.5 74q361 0 361 -330l-2 -428q0 -127 98 -96l12 -154 q-67 -18 -121 -18q-82 0 -128.5 40t-59.5 109q-120 -149 -303 -149q-136 0 -218.5 75t-82.5 205zM205 1278q0 47 33.5 81t80.5 34t81 -34t34 -81t-34 -80t-81 -33t-80.5 33t-33.5 80zM293 279q0 -66 41.5 -101t107.5 -35t124.5 34.5t99.5 84.5v160q-78 8 -125 8 q-248 0 -248 -151zM573 1278q0 47 34 81t81 34t81 -34t34 -81t-34 -80t-81 -33t-81 33t-34 80z" />
<glyph unicode="&#xe5;" horiz-adv-x="1046" d="M74 260q0 71 28 125t73 86.5t108.5 53t126 27.5t135.5 7q43 0 121 -4l2 104q0 100 -42 141.5t-128 41.5q-26 0 -50.5 -4t-51 -14.5t-42 -28t-23.5 -44t5 -63.5l-186 -26q-15 44 -15 81q0 115 110.5 189t272.5 74q361 0 361 -330l-2 -428q0 -127 98 -96l12 -154 q-67 -18 -121 -18q-82 0 -128.5 40t-59.5 109q-120 -149 -303 -149q-136 0 -218.5 75t-82.5 205zM287 1315q0 94 64.5 148.5t156.5 54.5q95 0 155 -52.5t60 -150.5q0 -86 -60.5 -145.5t-158.5 -59.5t-157.5 57t-59.5 148zM293 279q0 -66 41.5 -101t107.5 -35t124.5 34.5 t99.5 84.5v160q-78 8 -125 8q-248 0 -248 -151zM408 1315q0 -103 96 -103q51 0 73.5 26t22.5 77q0 52 -23 77t-73 25t-73 -25t-23 -77z" />
<glyph unicode="&#xe6;" horiz-adv-x="1597" d="M74 260q0 71 28 125t73 86.5t108.5 53t126 27.5t135.5 7q40 0 110 -4q0 25 13 84v33q0 92 -43.5 130t-126.5 38q-26 0 -50.5 -4t-51 -14t-42 -27.5t-23.5 -43.5t5 -63l-186 -26q-15 44 -15 81q0 115 110.5 189t272.5 74q212 0 291 -123q117 123 293 123q199 0 305 -117 t106 -375q0 -51 -2 -63h-639q10 -153 88 -227t214 -74q72 0 145.5 30.5t126.5 73.5l55 -170q-179 -104 -371 -104q-274 0 -395 186q-79 -95 -165 -140.5t-195 -45.5q-136 0 -218.5 75t-82.5 205zM293 279q0 -66 41.5 -101t107.5 -35q73 0 136.5 38.5t105.5 90.5 q-26 79 -31 150q-74 8 -114 8q-246 0 -246 -151zM870 590h428q5 127 -44 193.5t-150 66.5q-210 0 -234 -260z" />
<glyph unicode="&#xe7;" horiz-adv-x="950" d="M82 483q0 242 134.5 382.5t354.5 140.5q175 0 310 -74l-68 -193q-112 92 -233 92q-131 0 -203 -89t-72 -257q0 -161 75 -245t210 -84q63 0 124 24t107 64l58 -172q-117 -76 -279 -90l-25 -99q92 -14 140.5 -63.5t48.5 -116.5q0 -80 -69.5 -128t-170.5 -48 q-50 0 -100.5 13.5t-81.5 33.5l45 119q51 -51 127 -51q44 0 69 18.5t25 50.5q0 41 -42 66t-124 28l47 179q-187 18 -297 146t-110 353z" />
<glyph unicode="&#xe8;" horiz-adv-x="1030" d="M84 496q0 118 35.5 215t97 161t142.5 99t173 35q200 0 306 -117t106 -375v-63h-643q20 -301 305 -301q72 0 146 31t125 73l57 -170q-179 -104 -373 -104q-104 0 -189 30.5t-150.5 91.5t-101.5 161.5t-36 232.5zM276 1348l117 137l273 -281l-80 -86zM303 590h426 q6 127 -43 193.5t-151 66.5q-106 0 -163 -63.5t-69 -196.5z" />
<glyph unicode="&#xe9;" horiz-adv-x="1030" d="M84 496q0 118 35.5 215t97 161t142.5 99t173 35q200 0 306 -117t106 -375v-63h-643q20 -301 305 -301q72 0 146 31t125 73l57 -170q-179 -104 -373 -104q-104 0 -189 30.5t-150.5 91.5t-101.5 161.5t-36 232.5zM303 590h426q6 127 -43 193.5t-151 66.5q-106 0 -163 -63.5 t-69 -196.5zM389 1204l273 281l116 -137l-309 -230z" />
<glyph unicode="&#xea;" horiz-adv-x="1030" d="M84 496q0 118 35.5 215t97 161t142.5 99t173 35q200 0 306 -117t106 -375v-63h-643q20 -301 305 -301q72 0 146 31t125 73l57 -170q-179 -104 -373 -104q-104 0 -189 30.5t-150.5 91.5t-101.5 161.5t-36 232.5zM229 1196l265 250h102l256 -246l-104 -98l-207 190 l-213 -190zM303 590h426q6 127 -43 193.5t-151 66.5q-106 0 -163 -63.5t-69 -196.5z" />
<glyph unicode="&#xeb;" horiz-adv-x="1030" d="M84 496q0 118 35.5 215t97 161t142.5 99t173 35q200 0 306 -117t106 -375v-63h-643q20 -301 305 -301q72 0 146 31t125 73l57 -170q-179 -104 -373 -104q-104 0 -189 30.5t-150.5 91.5t-101.5 161.5t-36 232.5zM238 1278q0 47 33.5 81t80.5 34t81 -34t34 -81t-34 -80 t-81 -33t-80.5 33t-33.5 80zM303 590h426q6 127 -43 193.5t-151 66.5q-106 0 -163 -63.5t-69 -196.5zM606 1278q0 47 34 81t81 34t81 -34t34 -81t-34 -80t-81 -33t-81 33t-34 80z" />
<glyph unicode="&#xec;" horiz-adv-x="499" d="M-25 1348l117 137l273 -281l-80 -86zM143 0v981h213v-981h-213z" />
<glyph unicode="&#xed;" horiz-adv-x="499" d="M92 1204l273 281l116 -137l-309 -230zM143 0v981h213v-981h-213z" />
<glyph unicode="&#xee;" horiz-adv-x="499" d="M-66 1196l265 250h102l256 -246l-104 -98l-207 190l-213 -190zM143 0v981h213v-981h-213z" />
<glyph unicode="&#xef;" horiz-adv-x="499" d="M-47 1278q0 47 34 81t81 34t80.5 -34t33.5 -81t-33.5 -80t-80.5 -33t-81 33t-34 80zM143 0v981h213v-981h-213zM322 1278q0 47 33.5 81t80.5 34t81 -34t34 -81t-34 -80t-81 -33t-80.5 33t-33.5 80z" />
<glyph unicode="&#xf0;" horiz-adv-x="1159" d="M84 494q0 216 124 352.5t331 136.5q101 0 180 -43q-83 126 -193 211l-102 -117l-98 68l102 121q-62 38 -106 59l102 135q70 -34 119 -63l90 106l102 -74l-88 -98q397 -281 408 -764q0 -4 1 -15t1 -15q0 -104 -32 -196.5t-92 -163.5t-153.5 -112.5t-208.5 -41.5 q-229 0 -358 135t-129 379zM307 496q0 -346 258 -346q145 0 204.5 85.5t61.5 251.5q0 154 -36 273q-94 65 -222 65q-143 0 -204.5 -86t-61.5 -243z" />
<glyph unicode="&#xf1;" horiz-adv-x="1153" d="M143 0v981h199l2 -125q150 150 342 150q65 0 121 -16.5t106 -53.5t78.5 -106.5t28.5 -165.5v-664h-213v590q0 126 -46 175.5t-140 49.5q-133 0 -265 -115v-700h-213zM256 1253q95 142 211 142q52 0 127 -29t115 -29q79 0 131 64l67 -78q-40 -64 -96 -101.5t-115 -37.5 q-42 0 -117 31.5t-118 31.5q-76 0 -135 -63z" />
<glyph unicode="&#xf2;" d="M82 494q0 225 132 368.5t353 143.5q232 0 360 -136.5t128 -375.5q0 -104 -32 -196.5t-92 -163.5t-153.5 -112.5t-208.5 -41.5q-229 0 -358 135t-129 379zM274 1348l117 137l273 -281l-80 -86zM305 496q0 -346 258 -346q147 0 206.5 88t59.5 258q0 340 -266 340 q-258 0 -258 -340z" />
<glyph unicode="&#xf3;" d="M82 494q0 225 132 368.5t353 143.5q232 0 360 -136.5t128 -375.5q0 -104 -32 -196.5t-92 -163.5t-153.5 -112.5t-208.5 -41.5q-229 0 -358 135t-129 379zM305 496q0 -346 258 -346q147 0 206.5 88t59.5 258q0 340 -266 340q-258 0 -258 -340zM414 1204l272 281l117 -137 l-309 -230z" />
<glyph unicode="&#xf4;" d="M82 494q0 225 132 368.5t353 143.5q232 0 360 -136.5t128 -375.5q0 -104 -32 -196.5t-92 -163.5t-153.5 -112.5t-208.5 -41.5q-229 0 -358 135t-129 379zM254 1196l264 250h103l256 -246l-105 -98l-207 190l-213 -190zM305 496q0 -346 258 -346q147 0 206.5 88t59.5 258 q0 340 -266 340q-258 0 -258 -340z" />
<glyph unicode="&#xf5;" d="M82 494q0 225 132 368.5t353 143.5q232 0 360 -136.5t128 -375.5q0 -104 -32 -196.5t-92 -163.5t-153.5 -112.5t-208.5 -41.5q-229 0 -358 135t-129 379zM238 1253q95 142 211 142q52 0 126.5 -29t114.5 -29q79 0 131 64l68 -78q-40 -64 -96 -101.5t-115 -37.5 q-42 0 -117.5 31.5t-118.5 31.5q-76 0 -135 -63zM305 496q0 -346 258 -346q147 0 206.5 88t59.5 258q0 340 -266 340q-258 0 -258 -340z" />
<glyph unicode="&#xf6;" d="M82 494q0 225 132 368.5t353 143.5q232 0 360 -136.5t128 -375.5q0 -104 -32 -196.5t-92 -163.5t-153.5 -112.5t-208.5 -41.5q-229 0 -358 135t-129 379zM262 1278q0 47 34 81t81 34t81 -34t34 -81t-34 -80t-81 -33t-81 33t-34 80zM305 496q0 -346 258 -346 q147 0 206.5 88t59.5 258q0 340 -266 340q-258 0 -258 -340zM631 1278q0 47 33.5 81t80.5 34t81 -34t34 -81t-34 -80t-81 -33t-80.5 33t-33.5 80z" />
<glyph unicode="&#xf7;" horiz-adv-x="954" d="M90 518v148h774v-148h-774zM362 299q0 47 34 82t81 35t82 -35t35 -82t-35 -81t-82 -34t-81 34t-34 81zM362 879q0 47 34 81.5t81 34.5t82 -34.5t35 -81.5t-35 -81t-82 -34t-81 34t-34 81z" />
<glyph unicode="&#xf8;" d="M74 -10l119 145q-111 136 -111 359q0 225 132 368.5t353 143.5q162 0 277 -70l47 59h178l-123 -149q109 -133 109 -352q0 -104 -32 -196.5t-92 -163.5t-153.5 -112.5t-208.5 -41.5q-164 0 -274 67l-47 -57h-174zM305 496q0 -110 27 -189l391 481q-65 48 -160 48 q-258 0 -258 -340zM414 193q55 -43 149 -43q147 0 206.5 88t59.5 258q0 98 -24 174z" />
<glyph unicode="&#xf9;" horiz-adv-x="1148" d="M133 322v659h213v-596q0 -127 44.5 -177t135.5 -50q122 0 267 127v696h213v-981h-193l-8 129q-152 -152 -334 -152q-53 0 -98.5 8.5t-91 32t-77 61t-51.5 100t-20 143.5zM309 1348l117 137l272 -281l-80 -86z" />
<glyph unicode="&#xfa;" horiz-adv-x="1148" d="M133 322v659h213v-596q0 -127 44.5 -177t135.5 -50q122 0 267 127v696h213v-981h-193l-8 129q-152 -152 -334 -152q-53 0 -98.5 8.5t-91 32t-77 61t-51.5 100t-20 143.5zM436 1204l273 281l116 -137l-309 -230z" />
<glyph unicode="&#xfb;" horiz-adv-x="1148" d="M133 322v659h213v-596q0 -127 44.5 -177t135.5 -50q122 0 267 127v696h213v-981h-193l-8 129q-152 -152 -334 -152q-53 0 -98.5 8.5t-91 32t-77 61t-51.5 100t-20 143.5zM258 1196l264 250h103l256 -246l-105 -98l-207 190l-213 -190z" />
<glyph unicode="&#xfc;" horiz-adv-x="1148" d="M133 322v659h213v-596q0 -127 44.5 -177t135.5 -50q122 0 267 127v696h213v-981h-193l-8 129q-152 -152 -334 -152q-53 0 -98.5 8.5t-91 32t-77 61t-51.5 100t-20 143.5zM285 1278q0 47 33.5 81t80.5 34t81 -34t34 -81t-34 -80t-81 -33t-80.5 33t-33.5 80zM653 1278 q0 47 34 81t81 34t81 -34t34 -81t-34 -80t-81 -33t-81 33t-34 80z" />
<glyph unicode="&#xfd;" horiz-adv-x="1007" d="M16 981h228l174 -479l98 -289l92 283l170 485h213l-534 -1432h-209l149 406zM379 1204l272 281l117 -137l-309 -230z" />
<glyph unicode="&#xfe;" horiz-adv-x="1144" d="M143 -451v1854h213v-545q61 68 141.5 108t161.5 40q194 0 299 -132.5t105 -361.5q0 -245 -142.5 -388.5t-373.5 -143.5q-87 0 -191 22v-453h-213zM356 201q74 -47 181 -47q142 0 221.5 88t79.5 250q0 163 -64 244t-176 81q-123 0 -242 -119v-497z" />
<glyph unicode="&#xff;" horiz-adv-x="1007" d="M16 981h228l174 -479l98 -289l92 283l170 485h213l-534 -1432h-209l149 406zM221 1278q0 47 34 81t81 34t81 -34t34 -81t-34 -80t-81 -33t-81 33t-34 80zM590 1278q0 47 34 81t81 34t80.5 -34t33.5 -81t-33.5 -80t-80.5 -33t-81 33t-34 80z" />
<glyph unicode="&#x152;" horiz-adv-x="1804" d="M92 657q0 201 75 357.5t218 246t334 89.5q93 0 180 -19h797v-182h-609v-377h543v-180h-543v-406h609v-186h-807q-92 -20 -176 -20q-292 0 -456.5 179t-164.5 498zM324 657q0 -242 93 -369.5t296 -127.5q92 0 157 22v965q-71 22 -151 22q-202 0 -298.5 -126.5 t-96.5 -385.5z" />
<glyph unicode="&#x153;" horiz-adv-x="1787" d="M82 494q0 225 132 368.5t353 143.5q254 0 383 -164q61 79 149.5 121.5t190.5 42.5q200 0 306 -117t106 -375v-63h-643q20 -301 305 -301q71 0 145 31t125 73l58 -170q-179 -104 -373 -104q-256 0 -379 165q-133 -165 -371 -165q-229 0 -358 135t-129 379zM305 496 q0 -346 258 -346q147 0 206.5 88t59.5 258q0 340 -266 340q-258 0 -258 -340zM1061 590h426q6 127 -43.5 193.5t-151.5 66.5q-106 0 -162.5 -63.5t-68.5 -196.5z" />
<glyph unicode="&#x178;" horiz-adv-x="1081" d="M-6 1331h233l168 -317l162 -322l150 320l153 319h217l-420 -811v-520h-217v516zM248 1589q0 47 33.5 81t80.5 34t81 -34t34 -81t-34 -80.5t-81 -33.5t-80.5 33.5t-33.5 80.5zM637 1589q0 47 34 81t81 34t80.5 -34t33.5 -81t-33.5 -80.5t-80.5 -33.5t-81 33.5t-34 80.5z " />
<glyph unicode="&#x2c6;" horiz-adv-x="921" d="M147 1196l265 250h102l256 -246l-104 -98l-207 190l-213 -190z" />
<glyph unicode="&#x2dc;" horiz-adv-x="921" d="M127 1253q95 142 211 142q52 0 127 -29t115 -29q79 0 131 64l67 -78q-40 -64 -96 -101.5t-115 -37.5q-42 0 -117 31.5t-118 31.5q-76 0 -135 -63z" />
<glyph unicode="&#x2000;" horiz-adv-x="906" />
<glyph unicode="&#x2001;" horiz-adv-x="1812" />
<glyph unicode="&#x2002;" horiz-adv-x="906" />
<glyph unicode="&#x2003;" horiz-adv-x="1812" />
<glyph unicode="&#x2004;" horiz-adv-x="604" />
<glyph unicode="&#x2005;" horiz-adv-x="453" />
<glyph unicode="&#x2006;" horiz-adv-x="302" />
<glyph unicode="&#x2007;" horiz-adv-x="302" />
<glyph unicode="&#x2008;" horiz-adv-x="226" />
<glyph unicode="&#x2009;" horiz-adv-x="362" />
<glyph unicode="&#x200a;" horiz-adv-x="100" />
<glyph unicode="&#x2010;" horiz-adv-x="851" d="M154 432v182h544v-182h-544z" />
<glyph unicode="&#x2011;" horiz-adv-x="851" d="M154 432v182h544v-182h-544z" />
<glyph unicode="&#x2012;" horiz-adv-x="851" d="M154 432v182h544v-182h-544z" />
<glyph unicode="&#x2013;" horiz-adv-x="1224" d="M162 455v149h901v-149h-901z" />
<glyph unicode="&#x2014;" horiz-adv-x="2248" d="M162 455v149h1925v-149h-1925z" />
<glyph unicode="&#x2018;" horiz-adv-x="419" d="M84 946q3 121 52 253.5t122 238.5l141 -41q-114 -199 -120 -451h-195z" />
<glyph unicode="&#x2019;" horiz-adv-x="407" d="M57 981q115 201 121 449h195q-3 -121 -52 -253.5t-122 -238.5z" />
<glyph unicode="&#x201a;" horiz-adv-x="430" d="M6 -244q115 201 121 441h190q-3 -120 -51.5 -247.5t-122.5 -234.5z" />
<glyph unicode="&#x201c;" horiz-adv-x="774" d="M84 946q3 121 52 253.5t122 238.5l141 -41q-114 -199 -120 -451h-195zM438 946q4 122 53.5 255t122.5 237l140 -41q-116 -208 -119 -451h-197z" />
<glyph unicode="&#x201d;" horiz-adv-x="763" d="M57 981q115 201 121 449h195q-3 -121 -52 -253.5t-122 -238.5zM414 981q115 206 118 449h197q-4 -122 -53.5 -255t-122.5 -237z" />
<glyph unicode="&#x201e;" horiz-adv-x="788" d="M6 -244q115 201 121 441h190q-3 -120 -51.5 -247.5t-122.5 -234.5zM367 -244q115 206 118 441h193q-4 -121 -53 -249t-123 -233z" />
<glyph unicode="&#x2022;" horiz-adv-x="669" d="M88 551q0 103 71.5 175.5t174.5 72.5t175.5 -72.5t72.5 -175.5t-72.5 -174.5t-175.5 -71.5t-174.5 71.5t-71.5 174.5z" />
<glyph unicode="&#x2026;" horiz-adv-x="1433" d="M96 104q0 58 35 90.5t96 32.5q60 0 97.5 -31.5t37.5 -91.5q0 -61 -35.5 -94t-99.5 -33t-97.5 32.5t-33.5 94.5zM584 104q0 58 35.5 90.5t97.5 32.5q60 0 96.5 -31t36.5 -92t-35 -94t-98 -33q-64 0 -98.5 32.5t-34.5 94.5zM1073 104q0 58 35 90.5t96 32.5q60 0 97.5 -31.5 t37.5 -91.5q0 -61 -35.5 -94t-99.5 -33t-97.5 32.5t-33.5 94.5z" />
<glyph unicode="&#x202f;" horiz-adv-x="362" />
<glyph unicode="&#x2039;" horiz-adv-x="561" d="M51 479l266 473h177l-220 -465l220 -481h-177z" />
<glyph unicode="&#x203a;" horiz-adv-x="561" d="M68 6l221 481l-221 465h176l266 -473l-266 -473h-176z" />
<glyph unicode="&#x205f;" horiz-adv-x="453" />
<glyph unicode="&#x20ac;" horiz-adv-x="1214" d="M55 426l21 147h137q-2 27 -2 84t2 86h-137l20 148h137q51 222 197.5 340.5t370.5 118.5q189 0 336 -80l-66 -185q-127 84 -270 84q-141 0 -223 -69t-115 -209h502l-23 -148h-500q-2 -27 -2 -79q0 -62 2 -91h476l-21 -147h-432q35 -136 121 -202t227 -66q161 0 295 80 l53 -175q-87 -47 -173.5 -65t-205.5 -18q-465 0 -551 446h-176z" />
<glyph unicode="&#x2122;" horiz-adv-x="1777" d="M18 1217v116h682v-116h-266v-680h-149v680h-267zM748 537v796h176l180 -397l104 -258l103 258l176 397h170v-796h-144v553l-69 -189l-160 -364h-151l-164 350l-90 209l2 -197v-362h-133z" />
<glyph unicode="&#x25fc;" horiz-adv-x="983" d="M0 0v983h983v-983h-983z" />
</font>
</defs>
</svg>
